Ffmpeg change metadata

Matroska Metadata, Matroska tagging documentation is available at matroska.org. Adding tags with FFmpeg, Just add use the -metadata in FFmpeg to add any metadata tag, replace the KEY with the name of the metadata value that you'd like to use and the VALUE with that metadata value. -metadata KEY="VALUE", Example:Note that in ffmpeg, matching by metadata will only work properly for input files. 5.2 Generic options. These options are shared amongst the ff* tools. -L. Show license. ... The properties where a change triggers reinitialization are, for video, frame resolution or pixel format; for audio, sample format, sample rate, channel count or channel ...You can kind of work around, e. g. use a language such as ruby, python, perl, perhaps even exiftool to read the metadata (I found the output from exiftool easier to parse and read than "ffmpeg -i"), then make a backup copy of the video file, then modify the meta-tag data. This is actually quite simple to do via ffmpeg, for instance:Video metadata edit with Ffmpeg. I want to change the video metadata. Metadata: major_brand : mp42 minor_version : 0 compatible_brands: isomavc1mp42 creation_time : 2007-11-22 09:11:58 Duration: 00:00:52.70, start: 0.000000, bitrate: 235 kb/s Stream #0:0 (und): Audio: aac (mp4a / 0x6134706D), 44100 Hz, stereo, s16, 107 kb/s Metadata: creation ...Mar 29, 2022 · Note it might not copy all the metadata correctly since some videos store custom metadata. ffmpeg -i input.mov -map_metadata 0 -movflags use_metadata_tags output.mp4. 20. Add Subtitle to Video. FFmpeg can add a separate subtitle file to a video with the following command. Note to choose a compatible container format for the output video. The ordering of the audio streams can be accomplished using FFmpeg's map and disposition options. Best syntax for this is arguably: ffmpeg -i input.mkv -map 0:v:0 \ -map 0:a:2 -map 0:a:0 -map 0:a:1 -map 0:a:3 \ -map 0:s -c copy \ -disposition:a:0 default \ reordered.mkv. To unpack this a little: -map 0:v:0: The first (and only) video stream is ...FFmpeg should've added pix_fmt metadata by default. The fact you're player recognizes it as gbrp is worrying. I don't think there's any way to change this, honestly sounds like your file is corrupt or something. You can however easily change color space metadata using the hevc_metadata bitstream filter.Using FFmpeg to add this metadata to a media file is a simple task. The parameter is-metadata X= With X being the type of metadata being added, you can find this information in the tables below. If I wanted to add a title to my video here is the command: ffmpeg -i input.mp4 -metadata title="The video titile" -c copy output.mp4. This will produce:But this will fail because ffmpeg-python will add a -map 1 parameter here for the ffmetadata input.FFmpeg will complain and fail because input #1 doesn't have streams.. To fix this, ffmpeg-python must not add a -map 1 parameter if input is an FFMETADATA text file. These files must have .ffmetadata extension in order to ffmpeg command to recognize their format, so ffmpeg-python should decide.sudo apt-get install ffmpeg. if you're using Ubuntu, or: yaourt ffmpeg. if you are an Arch user. Whatever your distribution of choice, you will most certainly find ffmpeg available in your package manager. The addition of an extra repository may be necessary. Now if you type: ffmpeg –help. on a terminal, you will get a picture of the power of ... I also tried to remove some of the metadata using Wondershare UniConverter's "Fix Media Metadata" in the Toolbox, but it didn't have all the metadata.I tried within VLC in the Tools tab with Media and Codec Information, but it doesn't change it in the original file. As soon as I close the video, the metadata is still there. Read, write, edit & compare meta information of all popular formats.Using FFmpeg to add this metadata to a media file is a simple task. The parameter is-metadata X= With X being the type of metadata being added, you can find this information in the tables below. If I wanted to add a title to my video here is the command: ffmpeg -i input.mp4 -metadata title="The video titile" -c copy output.mp4. This will produce:FFmpeg has a free-form command line option that allows the user to specify key/value pairs for encoding metadata. The option is -metadata and is used as such: Whether the metadata key/value pairs are actually encoded into the output file is dependent upon the file format being muxed. Many formats only support a handful of metadata keys.Sep 15, 2022 · Set metadata information of the next output file from infile. Note that those are file indices (zero-based), not filenames. Optional metadata_spec_in/out parameters specify, which metadata to copy. A metadata specifier can have the following forms: g. global metadata, i.e. metadata that applies to the whole file s[:stream_spec] per-stream metadata. The default is 0. 3.5.3 Examples ... 5 Metadata . FFmpeg is able to dump metadata from media files into a simple UTF-8-encoded INI-like text file and then load it back using the metadata muxer/demuxer. 2020 ram 1500 parts diagram; onan cummins generator. How to use ffmpeg to add 3D metadata to a SBS Full Frame video without reencoding?Helpful? ...Convert 4k to 1080 (no change in codec) ffmpeg -i input4kvid.mp4 -vf scale=1920:1080 -c:a copy output1080vid.mp4 Convert h.264 to h.265 (no change in resolution) ffmpeg -i input.mp4 -c:v libx265 -vtag hvc1 -c:a copy output.mp4 Convert 4k(h.264) to 1080(h.265) Downscaling + Change in compression codec mkv metadata editor free download. Joplin Joplin is a free and open source note-taking and to-do application that can handle a large number of ... Load, modify and save your GPX 1.1 files. Add and remove waypoints, edit track and routes, simplify tracks (reducing file's size), clean recorded data,.Change The Volume Of Audio Files. FFmpeg allows us to change the volume of an audio file using "volume filter" option. For example, the following command will decrease volume by half. $ ffmpeg-i input.mp3 -af 'volume=0.5' output.mp3. Similarly, we can increase the volume like below: $ ffmpeg-i input.mp3 -af 'volume=1.5' output.mp3 5.. miauuu picrewA quick guide on how to read/write/modify ID3 metadata tags for audio / media files using ffmpeg.. FFmpeg has a free-form command line option that allows the user to specify key-value-pairs for encoding metadata . Let's take a look. 1. Read ID3 metadata . To list all global metadata tags for a media file, just set an input but no. ...To add metadata , ffmpeg has a command line option: ffmpeg -i video.mp4 -vn -acodec copy - metadata title="My Title" audio.aac. This runs without error, but when the output file is checked with ffprobe, it has no metadata tags at all. If the output container is changed to mp4, the metadata can be set and appears in the output file: ffmpeg -i.All Languages >> Whatever >> change metadata with ffmpeg "change metadata with ffmpeg" Code Answer. ffmpeg show metadata . whatever by Puzzled Pelican on May 20 2020 Comment . 0. Add a Grepper Answer . Answers related to "change metadata with ffmpeg" ...Otherwise, for ffmpeg, I always use two commands: the first to write to a temp file, then the second to copy it back to the original: ffmpeg -i original.mp4 -metadata title="my title" -c copy -y /tmp/tmp.mp4 && ffmpeg -i /tmp/tmp.mp4 -c copy -y original.mp4. If you do it a lot, you could wrap it all in a nice script too.Type and run the command below, and FFmpeg will change the original FPS to the value you set. ffmpeg -i input.mp4 -vf "fps=30" output.mp4, 18. Set Group of Pictures (GOP) GOP means group of pictures, which is the distance between two keyframes. You can set the -g value as you want.FFmpeg should've added pix_fmt metadata by default. The fact you're player recognizes it as gbrp is worrying. I don't think there's any way to change this, honestly sounds like your file is corrupt or something. You can however easily change color space metadata using the hevc_metadata bitstream filter.Aug 18, 2022 · ffmpeg shrink video size. ffmpeg change resolution. Using ffmpeg to split video files by size. ffmpeg add two videos together. ffmpeg increase volume. speed up video with ffmpeg. There is a ffmpeg.exe that can be used directly from windows command prompt. Once you have a logo image to overlay on a video. All you need to do is to call this command. 2 bed 2 bath modular home cost This WEBP to MP4 converter can convert WEBP (Web Picture) files to MP4 (MPEG-4 Video) video. How To Use: Select a WEBP file. Click button "Convert" to start upload your file. Once upload completed, converter will redirect a web page to show the conversion result. Remark:. I'm not sure if this is a fault in the MPD file itself or if i'm missing any ffmpeg options neccessary or helpful in ...How do I change metadata in FFmpeg? Just add use the -metadata in FFmpeg to add any metadata tag, replace the KEY with the name of the metadata value that you'd like to use and the VALUE with that metadata value. Look at the tags for these files with mkvinfo, mediainfo, and ffprobe. You can also add metadata specifically to certain tracks.However, once there is already an audio track of any origin in the project (either an imported file, a recording or generated audio), importing an audio file will never change the project rate. Generally, Audacity imports files at the sample format (bit depth) specified at Default Sample Format in Quality Preferences . food tastes like bleach covid. FFmpeg is an open-source collection of tools for processing video and audio files. It allows to convert video and audio files from one format into another, resize videos, stream audio and video, and perform various other actions with media files.This tutorial shows how to install FFmpeg on Raspberry Pi. (アセンブリが. This device is small, can record 4k ...Mar 29, 2022 · Note it might not copy all the metadata correctly since some videos store custom metadata. ffmpeg -i input.mov -map_metadata 0 -movflags use_metadata_tags output.mp4. 20. Add Subtitle to Video. FFmpeg can add a separate subtitle file to a video with the following command. Note to choose a compatible container format for the output video. Nov 06, 2013 · FFMPEG有几个最重要的结构体,包含了解协议,解封装,解码操作,此前已经进行过分析:FFMPEG中最关键的结构体之间的关系在此不再详述,其中AVFrame是包含码流参数较多的结构体。本文将会详细分析一下该结构体里每个变量的含义和作用。 mkv metadata editor free download. Joplin Joplin is a free and open source note-taking and to-do application that can handle a large number of ... Load, modify and save your GPX 1.1 files. Add and remove waypoints, edit track and routes, simplify tracks (reducing file's size), clean recorded data,.Type and run the command below, and FFmpeg will change the original FPS to the value you set. ffmpeg -i input.mp4 -vf "fps=30" output.mp4, 18. Set Group of Pictures (GOP) GOP means group of pictures, which is the distance between two keyframes. You can set the -g value as you want.There is no video duration metadata merged by FFmpeg on Android. I tried to rewrite metadata with the following command, but it was not reflected. ... Change .html URL depending on the active div. 7:20. Back button of the browser is not working + content is not loading if don't click on refresh button.sudo apt-get install ffmpeg. if you're using Ubuntu, or: yaourt ffmpeg. if you are an Arch user. Whatever your distribution of choice, you will most certainly find ffmpeg available in your package manager. The addition of an extra repository may be necessary. Now if you type: ffmpeg –help. on a terminal, you will get a picture of the power of ... Using FFmpeg to add this metadata to a media file is a simple task. The parameter is-metadata X= With X being the type of metadata being added, you can find this information in the tables below. If I wanted to add a title to my video here is the command: ffmpeg -i input.mp4 -metadata title="The video titile" -c copy output.mp4. This will produce:Protocols are configured elements in FFmpeg that enable access to resources that require specific protocols. When you configure your FFmpeg build, all the supported protocols are enabled by default. You can list all available ones using the configure option "-list-protocols".I have problems to change timecode inside metadata of a video file "mov". ffmpeg -i input.mov -ss 0 -map 0 -acodec copy -vcodec copy -timecode 01:20:10:00 -metadata:s:2:0 timecode=01:20:10:00 -metadata:s:1:0 timecode=01:20:10:00 -metadata:s:0:2 -metadata:s:0:2 timecode=01:10:10:00 output.mov. I need to put my own timecode to the file but this ...Otherwise, for ffmpeg, I always use two commands: the first to write to a temp file, then the second to copy it back to the original: ffmpeg -i original.mp4 -metadata title="my title" -c copy -y /tmp/tmp.mp4 && ffmpeg -i /tmp/tmp.mp4 -c copy -y original.mp4. If you do it a lot, you could wrap it all in a nice script too.However, once there is already an audio track of any origin in the project (either an imported file, a recording or generated audio), importing an audio file will never change the project rate. Generally, Audacity imports files at the sample format (bit depth) specified at Default Sample Format in Quality Preferences . The whole string would look something like this in case of a plain copy operation to only change metadata . ffmpeg -i /path/to/input.mov -c:v copy -c:a copy -mov_gamma 2.4 -movflags write_colr+write_gama -color_trc unspecified -color_primaries bt709 -colorspace bt709 /path/to/output.mov -yI am converting a bunch of video recorded with iPad (mov format) into mp4 with ffmpeg (version: ffmpeg version 4.2.1-0york0~18.04.1) under Linux Ubuntu 18.04 LTS. This is the code template I am using. zealand trail to guyot Matroska Metadata, Matroska tagging documentation is available at matroska.org. Adding tags with FFmpeg, Just add use the -metadata in FFmpeg to add any metadata tag, replace the KEY with the name of the metadata value that you'd like to use and the VALUE with that metadata value. -metadata KEY="VALUE", Example:4. Expand Segment Information and select Title. You can remove the element or change it to whatever you would like. ffmpeg output write metadata. list metadata ffmpeg. exif using ffmpeg. ffmpeg metadata from file. get metadata from ffmpeg. ffmpeg store metadata flv file. ffmpeg add custom metadata. ffmpeg preserve metadata m4b. ffmpeg show file ...FFmpeg, A complete, cross-platform solution to record, convert and stream audio and video. Download, Converting video and audio has never been so easy. $ ffmpeg -i input.mp4 output.avi, Discover more, News, January 17th, 2022, FFmpeg 5.0 "Lorentz", FFmpeg 5.0 "Lorentz", a new major release, is now available!Protocols are configured elements in FFmpeg that enable access to resources that require specific protocols. When you configure your FFmpeg build, all the supported protocols are enabled by default. You can list all available ones using the configure option "-list-protocols".ffmpeg -i default.mp4 -metadata title="my title" -codec copy output.mp4 && mv output.mp4 default.mp4 Since changing the metadata will change the length of the file, and I expect the metadata is near the beginning of the file, the audio and video would start at a different offset from the beginning of the file.A quick guide on how to read/write/modify ID3 metadata tags for audio / media files using ffmpeg.. FFmpeg has a free-form command line option that allows the user to specify key-value-pairs for encoding metadata . Let's take a look. 1. Read ID3 metadata . To list all global metadata tags for a media file, just set an input but no. ...Nov 06, 2013 · FFMPEG有几个最重要的结构体,包含了解协议,解封装,解码操作,此前已经进行过分析:FFMPEG中最关键的结构体之间的关系在此不再详述,其中AVFrame是包含码流参数较多的结构体。本文将会详细分析一下该结构体里每个变量的含义和作用。 2021. 10. 6. · If I use mpv to play output_file.ac3, the file does play. I do hear audio. I add it to the normal version of the episode: Code: ffmpeg-i input_file.mkv -i extracted_audio.ac3 -map 0 -map 1 -codec copy -map_metadata:s:a 0:s:a output.mkv.When I play back the video using mpv and switch to the audio track I just added, I hear no audio and an.Convert 4k to 1080 (no change in codec) ffmpeg -i input4kvid.mp4 -vf scale=1920:1080 -c:a copy output1080vid.mp4 Convert h.264 to h.265 (no change in resolution) ffmpeg -i input.mp4 -c:v libx265 -vtag hvc1 -c:a copy output.mp4 Convert 4k(h.264) to 1080(h.265) Downscaling + Change in compression codec The default is 0. 3.5.3 Examples ... 5 Metadata . FFmpeg is able to dump metadata from media files into a simple UTF-8-encoded INI-like text file and then load it back using the metadata muxer/demuxer. 2020 ram 1500 parts diagram; onan cummins generator. How to use ffmpeg to add 3D metadata to a SBS Full Frame video without reencoding?Helpful? ...Otherwise, for ffmpeg, I always use two commands: the first to write to a temp file, then the second to copy it back to the original: ffmpeg -i original.mp4 -metadata title="my title" -c copy -y /tmp/tmp.mp4 && ffmpeg -i /tmp/tmp.mp4 -c copy -y original.mp4. If you do it a lot, you could wrap it all in a nice script too.This answer on StackOverflow put me on the right path. With ffmpeg, adding metadata is simply including -metadata key=value arguments in the command: ffmpeg -i video.mkv -c copy -movflags use_metadata_tags -map_metadata 0 -metadata title="Hello World" -metadata year=2020 video.metadata.mkv. when split into lines:Nov 06, 2013 · FFMPEG有几个最重要的结构体,包含了解协议,解封装,解码操作,此前已经进行过分析:FFMPEG中最关键的结构体之间的关系在此不再详述,其中AVFrame是包含码流参数较多的结构体。本文将会详细分析一下该结构体里每个变量的含义和作用。 The easiest way to install ffmpeg is to download a pre-built binary for your specific platform. Then you don’t have to worry about including and installing all the right dependencies and codecs you will be using. Once you have ffmpeg installed, adding a watermark is as easy as passing your existing source through an overlay filter like so: The whole string would look something like this in case of a plain copy operation to only change metadata . ffmpeg -i /path/to/input.mov -c:v copy -c:a copy -mov_gamma 2.4 -movflags write_colr+write_gama -color_trc unspecified -color_primaries bt709 -colorspace bt709 /path/to/output.mov -yNote that in ffmpeg, matching by metadata will only work properly for input files. 5.2 Generic options. These options are shared amongst the ff* tools. -L. Show license. ... The properties where a change triggers reinitialization are, for video, frame resolution or pixel format; for audio, sample format, sample rate, channel count or channel ...Aug 18, 2022 · ffmpeg shrink video size. ffmpeg change resolution. Using ffmpeg to split video files by size. ffmpeg add two videos together. ffmpeg increase volume. speed up video with ffmpeg. There is a ffmpeg.exe that can be used directly from windows command prompt. Once you have a logo image to overlay on a video. All you need to do is to call this command. Jun 05, 2017 · The same can be done to change the video as well as the audio stream: ffmpeg-i input.mp4 -c:v vp9 -c:a libvorbis output.mkv. This will make a Matroska container with a VP9 video stream and a Vorbis audio stream, essentially the same as the WebM we made earlier. The command ffmpeg -codecs will print every codec FFmpeg knows about. The output of ... There is no video duration metadata merged by FFmpeg on Android. I tried to rewrite metadata with the following command, but it was not reflected. ... Change .html URL depending on the active div. 7:20. Back button of the browser is not working + content is not loading if don't click on refresh button.Nov 06, 2013 · FFMPEG有几个最重要的结构体,包含了解协议,解封装,解码操作,此前已经进行过分析:FFMPEG中最关键的结构体之间的关系在此不再详述,其中AVFrame是包含码流参数较多的结构体。本文将会详细分析一下该结构体里每个变量的含义和作用。 1 Answer. Sorted by: 0. I guess you cannot copy the video codec as you are changing the video profile, using this command worked for me. ffmpeg -i input.mp4 -acodec copy -profile:v high -level 4.0 output.mp4. Here I am only copying audio codec. Share.vintage drinking glasses worth moneyFFmpeg should've added pix_fmt metadata by default. The fact you're player recognizes it as gbrp is worrying. I don't think there's any way to change this, honestly sounds like your file is corrupt or something. You can however easily change color space metadata using the hevc_metadata bitstream filter.I also tried to remove some of the metadata using Wondershare UniConverter's "Fix Media Metadata " in the Toolbox, but it didn't have all the metadata . I tried within VLC in the Tools tab with Media and Codec Information, but it doesn't change it in the original file. ... but it doesn't change it in the original file. As soon as I close the ...Jun 05, 2017 · The same can be done to change the video as well as the audio stream: ffmpeg-i input.mp4 -c:v vp9 -c:a libvorbis output.mkv. This will make a Matroska container with a VP9 video stream and a Vorbis audio stream, essentially the same as the WebM we made earlier. The command ffmpeg -codecs will print every codec FFmpeg knows about. The output of ... Then navigate to where your source .mov file is, we'll call it. test.mov. And run: ffmpeg -i test.mov -map_metadata -1 -vcodec copy -acodec copy test-nometadata.mov. You can then use exiftool to check that it worked; exiftool test.mov and exiftool test-nometadata.mov should show you the difference.Convert 4k to 1080 (no change in codec) ffmpeg -i input4kvid.mp4 -vf scale=1920:1080 -c:a copy output1080vid.mp4 Convert h.264 to h.265 (no change in resolution) ffmpeg -i input.mp4 -c:v libx265 -vtag hvc1 -c:a copy output.mp4 Convert 4k(h.264) to 1080(h.265) Downscaling + Change in compression codec Jun 29, 2020 · ffmpeg -i input.mkv -c:v copy -vbsf hevc_mp4toannexb -f hevc - | hdr10plus_parser -o metadata.json - Option 1: Using the newest FFmpeg. You just need to pass the metadata file via the dhdr10-info option in the x265-params. And don’t forget to add your audio and subtitle settings! 1 Answer. Sorted by: 0. I guess you cannot copy the video codec as you are changing the video profile, using this command worked for me. ffmpeg -i input.mp4 -acodec copy -profile:v high -level 4.0 output.mp4. Here I am only copying audio codec. Share.1 Answer. Sorted by: 0. I guess you cannot copy the video codec as you are changing the video profile, using this command worked for me. ffmpeg -i input.mp4 -acodec copy -profile:v high -level 4.0 output.mp4. Here I am only copying audio codec. Share.Jan 24, 2022 · In some cases, FFmpeg will set the Sample Aspect Ratio to compensate for the ratio change. You have to manually set the SAR value to 1:1 to make the players display it in the way you want. For example: ffmpeg -i input.mp4 -vf scale=320:240,setsar=1:1 output.mp4 When going from BGR (not RGB) to yuv420p the conversion is broken (off-by-one). To use the metadata file, you will need to custom compiled x265 with the cmake option "HDR10_PLUS" . Otherwise when you try to convert with it, you'll see a message like "x265 [warning]: -dhdr10-info disabled. Enable HDR10_PLUS in cmake." in the the output, but it will still encode, just without HDR10+ support.You will need to rename all your files exactly like you said „S##E## - Title" & let the script slice the filename between season.episode & episode name. Then trim the second part (your title) & eliminate all special characters. Generally, macOS has several ways to make this work.There is no video duration metadata merged by FFmpeg on Android. I tried to rewrite metadata with the following command, but it was not reflected. ... Change .html URL depending on the active div. 7:20. Back button of the browser is not working + content is not loading if don't click on refresh button.Protocols are configured elements in FFmpeg that enable access to resources that require specific protocols. When you configure your FFmpeg build, all the supported protocols are enabled by default. You can list all available ones using the configure option "-list-protocols".Nov 06, 2013 · FFMPEG有几个最重要的结构体,包含了解协议,解封装,解码操作,此前已经进行过分析:FFMPEG中最关键的结构体之间的关系在此不再详述,其中AVFrame是包含码流参数较多的结构体。本文将会详细分析一下该结构体里每个变量的含义和作用。 The latest ffmpeg (4.2.1 and nighly builds), when running commands for the Fusion videos, e.g. this: ffmpeg -i GOPR5687.MP4 -map 0 -copy_unknown -map_ metadata 0 \ -c copy -c:v h264 -crf 22 output.mp4. I am trying to find a way to add metadata to the output.Ffmpeg Change Segment Metadata. Ask Question Asked 9 years, 10 months ago. Modified 9 years, 7 months ago. Viewed 2k times 3 2. I was wondering if it is at all possible to change the metadata of video segments in ffmpeg as the segments are being created. I know that by using the "-metadata" tag, you can change the metadata of the -i input video ...I debugged the issue and found that "encoder" metadata is flagged with "AV_DICT_DONT_OVERWRITE". That means you cannot change the "encoder" label. However, you can provide a user-defined label if you're so inclined with the following command: $ ffmpeg -i in.264 -metadata myEncoder=h265 -y out.h264. You'll get this output: Metadata: myEncoder ...Nov 06, 2013 · FFMPEG有几个最重要的结构体,包含了解协议,解封装,解码操作,此前已经进行过分析:FFMPEG中最关键的结构体之间的关系在此不再详述,其中AVFrame是包含码流参数较多的结构体。本文将会详细分析一下该结构体里每个变量的含义和作用。 I want to set title and language for the second audio stream and I want only this stream to get carried to the output. For this I'm using the following command: ffmpeg -i input.mp4 -map -0:1 -map 0:2 -metadata:s:a:0 title='Test_Title' -metadata:s:a:0 language='eng' -map 0:v:0? -c copy output.mkv. But FFmpeg couldn't identify the stream, though ...Sep 15, 2022 · 5 Metadata. FFmpeg is able to dump metadata from media files into a simple UTF-8-encoded INI-like text file and then load it back using the metadata muxer/demuxer. The file format is as follows: A file consists of a header and a number of metadata tags divided into sections, each on its own line. Otherwise, for ffmpeg, I always use two commands: the first to write to a temp file, then the second to copy it back to the original: ffmpeg -i original.mp4 -metadata title="my title" -c copy -y /tmp/tmp.mp4 && ffmpeg -i /tmp/tmp.mp4 -c copy -y original.mp4. If you do it a lot, you could wrap it all in a nice script too.I have problems to change timecode inside metadata of a video file "mov". ffmpeg -i input.mov -ss 0 -map 0 -acodec copy -vcodec copy -timecode 01:20:10:00 -metadata:s:2:0 timecode=01:20:10:00 -metadata:s:1:0 timecode=01:20:10:00 -metadata:s:0:2 -metadata:s:0:2 timecode=01:10:10:00 output.mov. I need to put my own timecode to the file but this ...Protocols are configured elements in FFmpeg that enable access to resources that require specific protocols. When you configure your FFmpeg build, all the supported protocols are enabled by default. You can list all available ones using the configure option "-list-protocols".Aug 18, 2022 · ffmpeg shrink video size. ffmpeg change resolution. Using ffmpeg to split video files by size. ffmpeg add two videos together. ffmpeg increase volume. speed up video with ffmpeg. There is a ffmpeg.exe that can be used directly from windows command prompt. Once you have a logo image to overlay on a video. All you need to do is to call this command. The default is 0. 3.5.3 Examples ... 5 Metadata . FFmpeg is able to dump metadata from media files into a simple UTF-8-encoded INI-like text file and then load it back using the metadata muxer/demuxer. 2020 ram 1500 parts diagram; onan cummins generator. How to use ffmpeg to add 3D metadata to a SBS Full Frame video without reencoding?Helpful? ...I think with latest version of ffmpeg that message should go away, so if you download something built from their main branch (aka a master-latest from BtbN) should be fine. NOTE: The number of mentions on this list indicates mentions on common posts plus user suggested alternatives. Summary of the bug: when use avcodec_open2 function ,return AVERROR_INVALIDDATA.Note that in ffmpeg, matching by metadata will only work properly for input files. 5.2 Generic options. These options are shared amongst the ff* tools. -L. Show license. ... The properties where a change triggers reinitialization are, for video, frame resolution or pixel format; for audio, sample format, sample rate, channel count or channel ...The latest ffmpeg (4.2.1 and nighly builds), when running commands for the Fusion videos, e.g. this: ffmpeg -i GOPR5687.MP4 -map 0 -copy_unknown -map_ metadata 0 \ -c copy -c:v h264 -crf 22 output.mp4. I am trying to find a way to add metadata to the output.Aug 18, 2022 · ffmpeg shrink video size. ffmpeg change resolution. Using ffmpeg to split video files by size. ffmpeg add two videos together. ffmpeg increase volume. speed up video with ffmpeg. There is a ffmpeg.exe that can be used directly from windows command prompt. Once you have a logo image to overlay on a video. All you need to do is to call this command. best talking dog movies However, ffmpeg-python seems to work well for both simple and complex usage. Below is the code responsible for extracting the metadata : import ffmpeg import sys from pprint import pprint # for printing Python dictionaries in a human-readable way # read the audio/video file from the command line arguments media_file = sys.argv[1] # uses ffprobe.Mar 15, 2022 · Video encoding, muxing, and analysis GUI in Winforms, built around FFmpeg, FFprobe, and av1an. Features Input. Supports all formats that ffmpeg can decode; Either use "Muxing Mode" to either convert a single file or merge multiple files into one, or "Batch Processing Mode" to run an action on each file I have video files like: C:\foo\bar.mkv But the metadata tags on the videos often reads like nonsense, like blah blah blah foo blah blah bar 981237.mkv. I'm pretty versed in using FFMPEG to re-encode with different codecs and such, but I would like to be able to edit the metadata to inherit the directory structure, so that the resultant file's metadata could take C:\foo\bar.mkv and change ...How do I change metadata in FFmpeg? Just add use the -metadata in FFmpeg to add any metadata tag, replace the KEY with the name of the metadata value that you'd like to use and the VALUE with that metadata value. Look at the tags for these files with mkvinfo, mediainfo, and ffprobe. You can also add metadata specifically to certain tracks.Otherwise, for ffmpeg, I always use two commands: the first to write to a temp file, then the second to copy it back to the original: ffmpeg -i original.mp4 -metadata title="my title" -c copy -y /tmp/tmp.mp4 && ffmpeg -i /tmp/tmp.mp4 -c copy -y original.mp4. If you do it a lot, you could wrap it all in a nice script too.Then navigate to where your source .mov file is, we'll call it. test.mov. And run: ffmpeg -i test.mov -map_metadata -1 -vcodec copy -acodec copy test-nometadata.mov. You can then use exiftool to check that it worked; exiftool test.mov and exiftool test-nometadata.mov should show you the difference.Convert 4k to 1080 (no change in codec) ffmpeg -i input4kvid.mp4 -vf scale=1920:1080 -c:a copy output1080vid.mp4 Convert h.264 to h.265 (no change in resolution) ffmpeg -i input.mp4 -c:v libx265 -vtag hvc1 -c:a copy output.mp4 Convert 4k(h.264) to 1080(h.265) Downscaling + Change in compression codec ffmpeg -i mymovie.mp4 -vf subtitles=subtitles.srt mysubtitledmovie.mp4 This is the case e.g. for Ubuntu 20.10, you can check if ffmpeg --version has --enable-libass. Otherwise, you can the libass library (make sure your ffmpeg install has the library in the configuration --enable-libass). First convert the subtitles to .ass format: Note that percent can be (very) inaccurate, as the only progress information fluent-ffmpeg gets from ffmpeg is the total number of frames written (and the corresponding duration). To estimate percentage, fluent-ffmpeg has to guess what the total output duration will be, and uses the first input added to the command to do so.. "/>Convert video to images. 3 I posted a question here ffmpeg batch script for video resizing but I forgot the issue of the rotation and the video files were scaled with wrong dimensions. Below is the improved version of the script. DESCRIPTION ffmpeg is a very fast video and audio converter that can also grab from a live audio/video source.Mar 15, 2022 · Video encoding, muxing, and analysis GUI in Winforms, built around FFmpeg, FFprobe, and av1an. Features Input. Supports all formats that ffmpeg can decode; Either use "Muxing Mode" to either convert a single file or merge multiple files into one, or "Batch Processing Mode" to run an action on each file Nov 06, 2013 · FFMPEG有几个最重要的结构体,包含了解协议,解封装,解码操作,此前已经进行过分析:FFMPEG中最关键的结构体之间的关系在此不再详述,其中AVFrame是包含码流参数较多的结构体。本文将会详细分析一下该结构体里每个变量的含义和作用。 vintage drinking glasses worth moneyJun 05, 2017 · The same can be done to change the video as well as the audio stream: ffmpeg-i input.mp4 -c:v vp9 -c:a libvorbis output.mkv. This will make a Matroska container with a VP9 video stream and a Vorbis audio stream, essentially the same as the WebM we made earlier. The command ffmpeg -codecs will print every codec FFmpeg knows about. The output of ... Convert video to images. 3 I posted a question here ffmpeg batch script for video resizing but I forgot the issue of the rotation and the video files were scaled with wrong dimensions. Below is the improved version of the script. DESCRIPTION ffmpeg is a very fast video and audio converter that can also grab from a live audio/video source.Jun 05, 2017 · The same can be done to change the video as well as the audio stream: ffmpeg-i input.mp4 -c:v vp9 -c:a libvorbis output.mkv. This will make a Matroska container with a VP9 video stream and a Vorbis audio stream, essentially the same as the WebM we made earlier. The command ffmpeg -codecs will print every codec FFmpeg knows about. The output of ... Jan 24, 2022 · In some cases, FFmpeg will set the Sample Aspect Ratio to compensate for the ratio change. You have to manually set the SAR value to 1:1 to make the players display it in the way you want. For example: ffmpeg -i input.mp4 -vf scale=320:240,setsar=1:1 output.mp4 When going from BGR (not RGB) to yuv420p the conversion is broken (off-by-one). However, once there is already an audio track of any origin in the project (either an imported file, a recording or generated audio), importing an audio file will never change the project rate. Generally, Audacity imports files at the sample format (bit depth) specified at Default Sample Format in Quality Preferences . How do I change metadata in FFmpeg? Just add use the -metadata in FFmpeg to add any metadata tag, replace the KEY with the name of the metadata value that you'd like to use and the VALUE with that metadata value. Look at the tags for these files with mkvinfo, mediainfo, and ffprobe. You can also add metadata specifically to certain tracks.The index - 0,1,2,3 - seems to be just ignored my ffmpeg as they are all global metadata items, but at least give us unique key values in the dictionary object that the ffmpeg wrapper uses for building up the ffmpeg arguments. Awesome. I'd never find this trick by looking those documents. How did you find this trick?ffmpeg -i mymovie.mp4 -vf subtitles=subtitles.srt mysubtitledmovie.mp4 This is the case e.g. for Ubuntu 20.10, you can check if ffmpeg --version has --enable-libass. Otherwise, you can the libass library (make sure your ffmpeg install has the library in the configuration --enable-libass). First convert the subtitles to .ass format: 5 Metadata. FFmpeg is able to dump metadata from media files into a simple UTF-8-encoded INI-like text file and then load it back using the metadata muxer/demuxer. The file format is as follows: A file consists of a header and a number of metadata tags divided into sections, each on its own line.I am trying to change the video stream metadata. See (Change This Metadata) below. I can change the title of the movie ok but not any others. What is the ffmpeg line to change this. This line below changes "Title Of The Movie" only. ffmpeg -i Input.mkv -metadata title="New Title" -c:v copy -c:a copy -c:s copy Output.mkv1 Answer. Sorted by: 0. I guess you cannot copy the video codec as you are changing the video profile, using this command worked for me. ffmpeg -i input.mp4 -acodec copy -profile:v high -level 4.0 output.mp4. Here I am only copying audio codec. Share.4. Expand Segment Information and select Title. You can remove the element or change it to whatever you would like. ffmpeg output write metadata. list metadata ffmpeg. exif using ffmpeg. ffmpeg metadata from file. get metadata from ffmpeg. ffmpeg store metadata flv file. ffmpeg add custom metadata. ffmpeg preserve metadata m4b. ffmpeg show file ...Note that percent can be (very) inaccurate, as the only progress information fluent-ffmpeg gets from ffmpeg is the total number of frames written (and the corresponding duration). To estimate percentage, fluent-ffmpeg has to guess what the total output duration will be, and uses the first input added to the command to do so.. "/>ffmpeg -i mymovie.mp4 -vf subtitles=subtitles.srt mysubtitledmovie.mp4 This is the case e.g. for Ubuntu 20.10, you can check if ffmpeg --version has --enable-libass. Otherwise, you can the libass library (make sure your ffmpeg install has the library in the configuration --enable-libass). First convert the subtitles to .ass format: vintage drinking glasses worth moneyI have problems to change timecode inside metadata of a video file "mov". ffmpeg -i input.mov -ss 0 -map 0 -acodec copy -vcodec copy -timecode 01:20:10:00 -metadata:s:2:0 timecode=01:20:10:00 -metadata:s:1:0 timecode=01:20:10:00 -metadata:s:0:2 -metadata:s:0:2 timecode=01:10:10:00 output.mov. I need to put my own timecode to the file but this ...Protocols are configured elements in FFmpeg that enable access to resources that require specific protocols. When you configure your FFmpeg build, all the supported protocols are enabled by default. You can list all available ones using the configure option "-list-protocols".I debugged the issue and found that "encoder" metadata is flagged with "AV_DICT_DONT_OVERWRITE". That means you cannot change the "encoder" label. However, you can provide a user-defined label if you're so inclined with the following command: $ ffmpeg -i in.264 -metadata myEncoder=h265 -y out.h264. You'll get this output: Metadata: myEncoder ...It isn't part of the steps, but this is how you troubleshoot the FFmpeg if it is activated. Step 2. Locate the file on the File Manager, and specify the input file. Step 3. Type on the CMD, type ffmpeg - i sample.mp3 -vn -acodec copy -metadata title ='Mozart' -metadata description =' music is a melody in our heart' sample.mp3 to add a title ...I debugged the issue and found that "encoder" metadata is flagged with "AV_DICT_DONT_OVERWRITE". That means you cannot change the "encoder" label. However, you can provide a user-defined label if you're so inclined with the following command: $ ffmpeg -i in.264 -metadata myEncoder=h265 -y out.h264. You'll get this output: Metadata: myEncoder ...The -metadata option is for manipulating the metadata. If you just want to copy the metadata from an input file to an output file, you should use the -map_metadata option: ffmpeg -i a.MOV -map_metadata 0 -c copy c.MOV. The file specifier is a zero-indexed number, so '0' takes the metadata from the first input file.Jun 05, 2021 · Build your own or download a compatible build from FFmpeg Windows Downloads. Your FFmpeg build should have a bin folder with 3 exe files and some dll files. Copy all those files to a folder such as c:\ffmpeg; Within you application's startup code (Main method), set Unosquare.FFME.Library.FFmpegDirectory = @"c:\ffmpeg";. The latest ffmpeg (4.2.1 and nighly builds), when running commands for the Fusion videos, e.g. this: ffmpeg -i GOPR5687.MP4 -map 0 -copy_unknown -map_ metadata 0 \ -c copy -c:v h264 -crf 22 output.mp4. I am trying to find a way to add metadata to the output.The easiest way to do this is to set - map_metadata to use one of the input streams, rather than using global metadata. 99% of the time this should work.NOTE: I'm using avconv, because that's in the Ubuntu 12.04 repositories; this will probably be drop-in compatible with ffmpeg, since their syntax always is in my experience. phorkie, the self-hosted, git-based pastebin software is.The index - 0,1,2,3 - seems to be just ignored my ffmpeg as they are all global metadata items, but at least give us unique key values in the dictionary object that the ffmpeg wrapper uses for building up the ffmpeg arguments. Awesome. I'd never find this trick by looking those documents. How did you find this trick?This is showing the first two packets of a hls playlist, first one is the subtitle packet which has a timestamp of 0.127 (this is the timestamp that appears in the .vtt segment file so the demuxer appears to be working correctly), it is being offset by -1.401 which is. Use FFmpeg > filter silencedetect filter to generate an output of sections of the video 's audio with silence.The latest ffmpeg (4.2.1 and nighly builds), when running commands for the Fusion videos, e.g. this: ffmpeg -i GOPR5687.MP4 -map 0 -copy_unknown -map_ metadata 0 \ -c copy -c:v h264 -crf 22 output.mp4. I am trying to find a way to add metadata to the output.letter to the rude customer 10x10 pixel art pokemon; disney channel schedule wikiConvert video to images. 3 I posted a question here ffmpeg batch script for video resizing but I forgot the issue of the rotation and the video files were scaled with wrong dimensions. Below is the improved version of the script. DESCRIPTION ffmpeg is a very fast video and audio converter that can also grab from a live audio/video source.Nov 06, 2013 · FFMPEG有几个最重要的结构体,包含了解协议,解封装,解码操作,此前已经进行过分析:FFMPEG中最关键的结构体之间的关系在此不再详述,其中AVFrame是包含码流参数较多的结构体。本文将会详细分析一下该结构体里每个变量的含义和作用。 Nov 06, 2013 · FFMPEG有几个最重要的结构体,包含了解协议,解封装,解码操作,此前已经进行过分析:FFMPEG中最关键的结构体之间的关系在此不再详述,其中AVFrame是包含码流参数较多的结构体。本文将会详细分析一下该结构体里每个变量的含义和作用。 I have problems to change timecode inside metadata of a video file "mov". ffmpeg -i input.mov -ss 0 -map 0 -acodec copy -vcodec copy -timecode 01:20:10:00 -metadata:s:2:0 timecode=01:20:10:00 -metadata:s:1:0 timecode=01:20:10:00 -metadata:s:0:2 -metadata:s:0:2 timecode=01:10:10:00 output.mov. I need to put my own timecode to the file but this ...Note that in ffmpeg, matching by metadata will only work properly for input files. 5.2 Generic options. These options are shared amongst the ff* tools. -L. Show license. ... The properties where a change triggers reinitialization are, for video, frame resolution or pixel format; for audio, sample format, sample rate, channel count or channel ...Nov 06, 2013 · FFMPEG有几个最重要的结构体,包含了解协议,解封装,解码操作,此前已经进行过分析:FFMPEG中最关键的结构体之间的关系在此不再详述,其中AVFrame是包含码流参数较多的结构体。本文将会详细分析一下该结构体里每个变量的含义和作用。 However, once there is already an audio track of any origin in the project (either an imported file, a recording or generated audio), importing an audio file will never change the project rate. Generally, Audacity imports files at the sample format (bit depth) specified at Default Sample Format in Quality Preferences . The index - 0,1,2,3 - seems to be just ignored my ffmpeg as they are all global metadata items, but at least give us unique key values in the dictionary object that the ffmpeg wrapper uses for building up the ffmpeg arguments. Awesome. I'd never find this trick by looking those documents. How did you find this trick?The latest ffmpeg (4.2.1 and nighly builds), when running commands for the Fusion videos, e.g. this: ffmpeg -i GOPR5687.MP4 -map 0 -copy_unknown -map_ metadata 0 \ -c copy -c:v h264 -crf 22 output.mp4. I am trying to find a way to add metadata to the output.Video metadata edit with Ffmpeg. I want to change the video metadata. Metadata: major_brand : mp42 minor_version : 0 compatible_brands: isomavc1mp42 creation_time : 2007-11-22 09:11:58 Duration: 00:00:52.70, start: 0.000000, bitrate: 235 kb/s Stream #0:0 (und): Audio: aac (mp4a / 0x6134706D), 44100 Hz, stereo, s16, 107 kb/s Metadata: creation ...This WEBP to MP4 converter can convert WEBP (Web Picture) files to MP4 (MPEG-4 Video) video. How To Use: Select a WEBP file. Click button "Convert" to start upload your file. Once upload completed, converter will redirect a web page to show the conversion result. Remark:. I'm not sure if this is a fault in the MPD file itself or if i'm missing any ffmpeg options neccessary or helpful in ...1 Answer. Sorted by: 0. I guess you cannot copy the video codec as you are changing the video profile, using this command worked for me. ffmpeg -i input.mp4 -acodec copy -profile:v high -level 4.0 output.mp4. Here I am only copying audio codec. Share.Jun 05, 2021 · Build your own or download a compatible build from FFmpeg Windows Downloads. Your FFmpeg build should have a bin folder with 3 exe files and some dll files. Copy all those files to a folder such as c:\ffmpeg; Within you application's startup code (Main method), set Unosquare.FFME.Library.FFmpegDirectory = @"c:\ffmpeg";. Just add use the - metadata in FFmpeg to add any metadata tag, replace the KEY with the name of the metadata value that you'd like to use and the VALUE with that metadata value. - metadata KEY="VALUE" Example: ffmpeg -f lavfi -i testsrc -t 1 - metadata ARCHIVAL=yes - metadata PRESERVE_THIS=okay - metadata DESCRIPTION="Just color bars" some ...free amatuer nude photos. ffmpeg supports practically anything under the sun, including adding metadata.This answer on StackOverflow put me on the right path. With ffmpeg, adding metadata is simply including -metadata key=value arguments in the command:. 2022. 2. 12. · It is possible to see the rotation by looking at the metadata of a file: Then you will see a lot of information about the file.Using FFmpeg to add this metadata to a media file is a simple task. The parameter is-metadata X= With X being the type of metadata being added, you can find this information in the tables below. If I wanted to add a title to my video here is the command: ffmpeg -i input.mp4 -metadata title="The video titile" -c copy output.mp4. This will produce:Nov 06, 2013 · FFMPEG有几个最重要的结构体,包含了解协议,解封装,解码操作,此前已经进行过分析:FFMPEG中最关键的结构体之间的关系在此不再详述,其中AVFrame是包含码流参数较多的结构体。本文将会详细分析一下该结构体里每个变量的含义和作用。 However, ffmpeg-python seems to work well for both simple and complex usage. Below is the code responsible for extracting the metadata : import ffmpeg import sys from pprint import pprint # for printing Python dictionaries in a human-readable way # read the audio/video file from the command line arguments media_file = sys.argv[1] # uses ffprobe.Here is where ffmpeg comes to help you. With the right command, you can change the metadata, and since it doesn't re-encode the file, it's almost instant. The only problem : it's not well documented. Checking the metadata. To make troubleshooting easier, it's good to start with a good inspector tool. Mediainfo has us covered here. When ...FFMpeg is the swiss army knife of video edi­tors and motion artists world­wide. Let's take a look at one of the less­er-known (and kin­da unex­pect­ed) features. FFmpeg can eas­i­ly extract embed ­ded sub­ti­tles from videos. This com­mand will grab the default sub­ti­tle track and export it as a srt file: ffmpeg -i input_file.The ...food tastes like bleach covid. FFmpeg is an open-source collection of tools for processing video and audio files. It allows to convert video and audio files from one format into another, resize videos, stream audio and video, and perform various other actions with media files.This tutorial shows how to install FFmpeg on Raspberry Pi. (アセンブリが. This device is small, can record 4k ...I'm not sure if this is a deliberate change, but given a h264 video with rotate=90 in its meta data, when you then rotated the video using the command below, the output video used to have no rotate metadata. ... 90" in its metadata ffmpeg -noautorotate -i original.mp4 -metadata:s:v rotate=0 -vf scale=640:480,transpose=clock -f mp4 -y rotated ...Jun 05, 2017 · The same can be done to change the video as well as the audio stream: ffmpeg-i input.mp4 -c:v vp9 -c:a libvorbis output.mkv. This will make a Matroska container with a VP9 video stream and a Vorbis audio stream, essentially the same as the WebM we made earlier. The command ffmpeg -codecs will print every codec FFmpeg knows about. The output of ... ffmpeg -i mymovie.mp4 -vf subtitles=subtitles.srt mysubtitledmovie.mp4 This is the case e.g. for Ubuntu 20.10, you can check if ffmpeg --version has --enable-libass. Otherwise, you can the libass library (make sure your ffmpeg install has the library in the configuration --enable-libass). First convert the subtitles to .ass format: The easiest way to install ffmpeg is to download a pre-built binary for your specific platform. Then you don’t have to worry about including and installing all the right dependencies and codecs you will be using. Once you have ffmpeg installed, adding a watermark is as easy as passing your existing source through an overlay filter like so: Here is where ffmpeg comes to help you. With the right command, you can change the metadata, and since it doesn't re-encode the file, it's almost instant. The only problem : it's not well documented. Checking the metadata. To make troubleshooting easier, it's good to start with a good inspector tool. Mediainfo has us covered here. When ...Video metadata edit with Ffmpeg. I want to change the video metadata. Metadata: major_brand : mp42 minor_version : 0 compatible_brands: isomavc1mp42 creation_time : 2007-11-22 09:11:58 Duration: 00:00:52.70, start: 0.000000, bitrate: 235 kb/s Stream #0:0 (und): Audio: aac (mp4a / 0x6134706D), 44100 Hz, stereo, s16, 107 kb/s Metadata: creation ... ant games poki Jun 05, 2017 · The same can be done to change the video as well as the audio stream: ffmpeg-i input.mp4 -c:v vp9 -c:a libvorbis output.mkv. This will make a Matroska container with a VP9 video stream and a Vorbis audio stream, essentially the same as the WebM we made earlier. The command ffmpeg -codecs will print every codec FFmpeg knows about. The output of ... The whole string would look something like this in case of a plain copy operation to only change metadata . ffmpeg -i /path/to/input.mov -c:v copy -c:a copy -mov_gamma 2.4 -movflags write_colr+write_gama -color_trc unspecified -color_primaries bt709 -colorspace bt709 /path/to/output.mov -yConvert video to images. 3 I posted a question here ffmpeg batch script for video resizing but I forgot the issue of the rotation and the video files were scaled with wrong dimensions. Below is the improved version of the script. DESCRIPTION ffmpeg is a very fast video and audio converter that can also grab from a live audio/video source.It is possible to see the rotation by looking at the metadata of a file: Then you will see a lot of information about the file. A bit down in the list is information about the rotation: ffmpeg -i filename.mp4 -c copy -metadata:s:v:0 rotate=0 output.mp4. This will quickly copy the video data over to a new file and fix the metadata information.3.100 Input #0, mov,mp4,m4a,3gp,3g2,mj2, from 'c:/sample-in-issue-505.mov': Metadata: major_brand : qt minor_version : 0 compatible_brands: qt creation_time : 2011-09-25 10:10:07 make : Apple make-deu : Apple encoder : 4.3.5 encoder-deu : 4.3.5 date : 2011-09-25T12:09:54+0200 date-deu : 2011-09-25T12:09:54+0200 location : +51.3889+006.8611 ...It is possible to see the rotation by looking at the metadata of a file: Then you will see a lot of information about the file. A bit down in the list is information about the rotation: ffmpeg -i filename.mp4 -c copy -metadata:s:v:0 rotate=0 output.mp4. This will quickly copy the video data over to a new file and fix the metadata information.The ordering of the audio streams can be accomplished using FFmpeg's map and disposition options. Best syntax for this is arguably: ffmpeg -i input.mkv -map 0:v:0 \ -map 0:a:2 -map 0:a:0 -map 0:a:1 -map 0:a:3 \ -map 0:s -c copy \ -disposition:a:0 default \ reordered.mkv. To unpack this a little: -map 0:v:0: The first (and only) video stream is ...This is showing the first two packets of a hls playlist, first one is the subtitle packet which has a timestamp of 0.127 (this is the timestamp that appears in the .vtt segment file so the demuxer appears to be working correctly), it is being offset by -1.401 which is. Use FFmpeg > filter silencedetect filter to generate an output of sections of the video 's audio with silence.However, once there is already an audio track of any origin in the project (either an imported file, a recording or generated audio), importing an audio file will never change the project rate. Generally, Audacity imports files at the sample format (bit depth) specified at Default Sample Format in Quality Preferences . Matroska Metadata, Matroska tagging documentation is available at matroska.org. Adding tags with FFmpeg, Just add use the -metadata in FFmpeg to add any metadata tag, replace the KEY with the name of the metadata value that you'd like to use and the VALUE with that metadata value. -metadata KEY="VALUE", Example:sudo apt-get install ffmpeg. if you're using Ubuntu, or: yaourt ffmpeg. if you are an Arch user. Whatever your distribution of choice, you will most certainly find ffmpeg available in your package manager. The addition of an extra repository may be necessary. Now if you type: ffmpeg –help. on a terminal, you will get a picture of the power of ... Jan 24, 2022 · In some cases, FFmpeg will set the Sample Aspect Ratio to compensate for the ratio change. You have to manually set the SAR value to 1:1 to make the players display it in the way you want. For example: ffmpeg -i input.mp4 -vf scale=320:240,setsar=1:1 output.mp4 When going from BGR (not RGB) to yuv420p the conversion is broken (off-by-one). I also tried to remove some of the metadata using Wondershare UniConverter's "Fix Media Metadata " in the Toolbox, but it didn't have all the metadata . I tried within VLC in the Tools tab with Media and Codec Information, but it doesn't change it in the original file. ... but it doesn't change it in the original file. As soon as I close the ...Ffmpeg Change Segment Metadata. Ask Question Asked 9 years, 10 months ago. Modified 9 years, 7 months ago. Viewed 2k times 3 2. I was wondering if it is at all possible to change the metadata of video segments in ffmpeg as the segments are being created. I know that by using the "-metadata" tag, you can change the metadata of the -i input video ...LONGi Solar LR6-60HPB-315M-PT Solar Panel Pallet, 30ea Min Purchase, 315W, MC4, 35mm Black Frame, Black Backsheet, 120 Half Cell Mono-PERC, 20A Fuse, 1000VDC, 294 The LR6 lineup is an efficient monocrystalline 60-cell module, with excellent electrical and solid structural performance (5400 Pa snow load and 2400 Pa wind load) Save more money. 19 hours ago · Part 9.The easiest way to install ffmpeg is to download a pre-built binary for your specific platform. Then you don’t have to worry about including and installing all the right dependencies and codecs you will be using. Once you have ffmpeg installed, adding a watermark is as easy as passing your existing source through an overlay filter like so: Sep 15, 2022 · Set metadata information of the next output file from infile. Note that those are file indices (zero-based), not filenames. Optional metadata_spec_in/out parameters specify, which metadata to copy. A metadata specifier can have the following forms: g. global metadata, i.e. metadata that applies to the whole file s[:stream_spec] per-stream metadata. 2021. 10. 6. · If I use mpv to play output_file.ac3, the file does play. I do hear audio. I add it to the normal version of the episode: Code: ffmpeg-i input_file.mkv -i extracted_audio.ac3 -map 0 -map 1 -codec copy -map_metadata:s:a 0:s:a output.mkv.When I play back the video using mpv and switch to the audio track I just added, I hear no audio and an.This WEBP to MP4 converter can convert WEBP (Web Picture) files to MP4 (MPEG-4 Video) video. How To Use: Select a WEBP file. Click button "Convert" to start upload your file. Once upload completed, converter will redirect a web page to show the conversion result. Remark:. I'm not sure if this is a fault in the MPD file itself or if i'm missing any ffmpeg options neccessary or helpful in ...sudo apt-get install ffmpeg. if you're using Ubuntu, or: yaourt ffmpeg. if you are an Arch user. Whatever your distribution of choice, you will most certainly find ffmpeg available in your package manager. The addition of an extra repository may be necessary. Now if you type: ffmpeg –help. on a terminal, you will get a picture of the power of ... Note that in ffmpeg, matching by metadata will only work properly for input files. 5.2 Generic options. These options are shared amongst the ff* tools. -L. Show license. ... The properties where a change triggers reinitialization are, for video, frame resolution or pixel format; for audio, sample format, sample rate, channel count or channel ...Aug 18, 2022 · ffmpeg shrink video size. ffmpeg change resolution. Using ffmpeg to split video files by size. ffmpeg add two videos together. ffmpeg increase volume. speed up video with ffmpeg. There is a ffmpeg.exe that can be used directly from windows command prompt. Once you have a logo image to overlay on a video. All you need to do is to call this command. superior court commissioner 4. Expand Segment Information and select Title. You can remove the element or change it to whatever you would like. ffmpeg output write metadata. list metadata ffmpeg. exif using ffmpeg. ffmpeg metadata from file. get metadata from ffmpeg. ffmpeg store metadata flv file. ffmpeg add custom metadata. ffmpeg preserve metadata m4b. ffmpeg show file ...Sep 15, 2022 · 5 Metadata. FFmpeg is able to dump metadata from media files into a simple UTF-8-encoded INI-like text file and then load it back using the metadata muxer/demuxer. The file format is as follows: A file consists of a header and a number of metadata tags divided into sections, each on its own line. The default is 0. 3.5.3 Examples ... 5 Metadata . FFmpeg is able to dump metadata from media files into a simple UTF-8-encoded INI-like text file and then load it back using the metadata muxer/demuxer. 2020 ram 1500 parts diagram; onan cummins generator. How to use ffmpeg to add 3D metadata to a SBS Full Frame video without reencoding?Helpful? ...However, ffmpeg-python seems to work well for both simple and complex usage. Below is the code responsible for extracting the metadata : import ffmpeg import sys from pprint import pprint # for printing Python dictionaries in a human-readable way # read the audio/video file from the command line arguments media_file = sys.argv[1] # uses ffprobe.Convert 4k to 1080 (no change in codec) ffmpeg -i input4kvid.mp4 -vf scale=1920:1080 -c:a copy output1080vid.mp4 Convert h.264 to h.265 (no change in resolution) ffmpeg -i input.mp4 -c:v libx265 -vtag hvc1 -c:a copy output.mp4 Convert 4k(h.264) to 1080(h.265) Downscaling + Change in compression codec FFMpeg is the swiss army knife of video edi­tors and motion artists world­wide. Let's take a look at one of the less­er-known (and kin­da unex­pect­ed) features. FFmpeg can eas­i­ly extract embed ­ded sub­ti­tles from videos. This com­mand will grab the default sub­ti­tle track and export it as a srt file: ffmpeg -i input_file.The ...Just add use the - metadata in FFmpeg to add any metadata tag, replace the KEY with the name of the metadata value that you'd like to use and the VALUE with that metadata value. - metadata KEY="VALUE" Example: ffmpeg -f lavfi -i testsrc -t 1 - metadata ARCHIVAL=yes - metadata PRESERVE_THIS=okay - metadata DESCRIPTION="Just color bars" some ...letter to the rude customer 10x10 pixel art pokemon; disney channel schedule wikiType and run the command below, and FFmpeg will change the original FPS to the value you set. ffmpeg -i input.mp4 -vf "fps=30" output.mp4, 18. Set Group of Pictures (GOP) GOP means group of pictures, which is the distance between two keyframes. You can set the -g value as you want.FFmpeg is a complete, cross-platform solution to record, convert and stream audio and video. It includes libavcodec – the leading audio/video codec library. The whole string would look something like this in case of a plain copy operation to only change metadata . ffmpeg -i /path/to/input.mov -c:v copy -c:a copy -mov_gamma 2.4 -movflags write_colr+write_gama -color_trc unspecified -color_primaries bt709 -colorspace bt709 /path/to/output.mov -y4. Expand Segment Information and select Title. You can remove the element or change it to whatever you would like. ffmpeg output write metadata. list metadata ffmpeg. exif using ffmpeg. ffmpeg metadata from file. get metadata from ffmpeg. ffmpeg store metadata flv file. ffmpeg add custom metadata. ffmpeg preserve metadata m4b. ffmpeg show file ...Aug 18, 2022 · ffmpeg shrink video size. ffmpeg change resolution. Using ffmpeg to split video files by size. ffmpeg add two videos together. ffmpeg increase volume. speed up video with ffmpeg. There is a ffmpeg.exe that can be used directly from windows command prompt. Once you have a logo image to overlay on a video. All you need to do is to call this command. FFmpeg, A complete, cross-platform solution to record, convert and stream audio and video. Download, Converting video and audio has never been so easy. $ ffmpeg -i input.mp4 output.avi, Discover more, News, January 17th, 2022, FFmpeg 5.0 "Lorentz", FFmpeg 5.0 "Lorentz", a new major release, is now available!sudo apt-get install ffmpeg. if you're using Ubuntu, or: yaourt ffmpeg. if you are an Arch user. Whatever your distribution of choice, you will most certainly find ffmpeg available in your package manager. The addition of an extra repository may be necessary. Now if you type: ffmpeg –help. on a terminal, you will get a picture of the power of ... 1 Answer. Sorted by: 0. I guess you cannot copy the video codec as you are changing the video profile, using this command worked for me. ffmpeg -i input.mp4 -acodec copy -profile:v high -level 4.0 output.mp4. Here I am only copying audio codec. Share.Convert 4k to 1080 (no change in codec) ffmpeg -i input4kvid.mp4 -vf scale=1920:1080 -c:a copy output1080vid.mp4 Convert h.264 to h.265 (no change in resolution) ffmpeg -i input.mp4 -c:v libx265 -vtag hvc1 -c:a copy output.mp4 Convert 4k(h.264) to 1080(h.265) Downscaling + Change in compression codec However, ffmpeg-python seems to work well for both simple and complex usage. Below is the code responsible for extracting the metadata : import ffmpeg import sys from pprint import pprint # for printing Python dictionaries in a human-readable way # read the audio/video file from the command line arguments media_file = sys.argv[1] # uses ffprobe.Convert 4k to 1080 (no change in codec) ffmpeg -i input4kvid.mp4 -vf scale=1920:1080 -c:a copy output1080vid.mp4 Convert h.264 to h.265 (no change in resolution) ffmpeg -i input.mp4 -c:v libx265 -vtag hvc1 -c:a copy output.mp4 Convert 4k(h.264) to 1080(h.265) Downscaling + Change in compression codec The easiest way to install ffmpeg is to download a pre-built binary for your specific platform. Then you don’t have to worry about including and installing all the right dependencies and codecs you will be using. Once you have ffmpeg installed, adding a watermark is as easy as passing your existing source through an overlay filter like so: Mar 08, 2011 · In ffmpeg-speak, or video-speak in general, by my understanding, metadata are things you can edit without altering the streams; conversely, you can alter the streams without changing the metadata. Doing so might have consequences though, for example you could mislabel a French audio track as Swahili.There is no video duration metadata merged by FFmpeg on Android. I tried to rewrite metadata with the following command, but it was not reflected. ... Change .html URL depending on the active div. 7:20. Back button of the browser is not working + content is not loading if don't click on refresh button.Matroska Metadata, Matroska tagging documentation is available at matroska.org. Adding tags with FFmpeg, Just add use the -metadata in FFmpeg to add any metadata tag, replace the KEY with the name of the metadata value that you'd like to use and the VALUE with that metadata value. -metadata KEY="VALUE", Example:Change The Volume Of Audio Files. FFmpeg allows us to change the volume of an audio file using "volume filter" option. For example, the following command will decrease volume by half. $ ffmpeg-i input.mp3 -af 'volume=0.5' output.mp3. Similarly, we can increase the volume like below: $ ffmpeg-i input.mp3 -af 'volume=1.5' output.mp3 5.. miauuu picrewAll Languages >> Whatever >> change metadata with ffmpeg "change metadata with ffmpeg" Code Answer. ffmpeg show metadata . whatever by Puzzled Pelican on May 20 2020 Comment . 0. Add a Grepper Answer . Answers related to "change metadata with ffmpeg" ...ffmpeg -i mymovie.mp4 -vf subtitles=subtitles.srt mysubtitledmovie.mp4 This is the case e.g. for Ubuntu 20.10, you can check if ffmpeg --version has --enable-libass. Otherwise, you can the libass library (make sure your ffmpeg install has the library in the configuration --enable-libass). First convert the subtitles to .ass format: 1 Answer. Sorted by: 0. I guess you cannot copy the video codec as you are changing the video profile, using this command worked for me. ffmpeg -i input.mp4 -acodec copy -profile:v high -level 4.0 output.mp4. Here I am only copying audio codec. Share.Mar 29, 2022 · Note it might not copy all the metadata correctly since some videos store custom metadata. ffmpeg -i input.mov -map_metadata 0 -movflags use_metadata_tags output.mp4. 20. Add Subtitle to Video. FFmpeg can add a separate subtitle file to a video with the following command. Note to choose a compatible container format for the output video. But this will fail because ffmpeg-python will add a -map 1 parameter here for the ffmetadata input.FFmpeg will complain and fail because input #1 doesn't have streams.. To fix this, ffmpeg-python must not add a -map 1 parameter if input is an FFMETADATA text file. These files must have .ffmetadata extension in order to ffmpeg command to recognize their format, so ffmpeg-python should decide.It isn't part of the steps, but this is how you troubleshoot the FFmpeg if it is activated. Step 2. Locate the file on the File Manager, and specify the input file. Step 3. Type on the CMD, type ffmpeg - i sample.mp3 -vn -acodec copy -metadata title ='Mozart' -metadata description =' music is a melody in our heart' sample.mp3 to add a title ...Otherwise, for ffmpeg, I always use two commands: the first to write to a temp file, then the second to copy it back to the original: ffmpeg -i original.mp4 -metadata title="my title" -c copy -y /tmp/tmp.mp4 && ffmpeg -i /tmp/tmp.mp4 -c copy -y original.mp4. If you do it a lot, you could wrap it all in a nice script too.Aug 18, 2022 · ffmpeg shrink video size. ffmpeg change resolution. Using ffmpeg to split video files by size. ffmpeg add two videos together. ffmpeg increase volume. speed up video with ffmpeg. There is a ffmpeg.exe that can be used directly from windows command prompt. Once you have a logo image to overlay on a video. All you need to do is to call this command. 4. Expand Segment Information and select Title. You can remove the element or change it to whatever you would like. ffmpeg output write metadata. list metadata ffmpeg. exif using ffmpeg. ffmpeg metadata from file. get metadata from ffmpeg. ffmpeg store metadata flv file. ffmpeg add custom metadata. ffmpeg preserve metadata m4b. ffmpeg show file ...This is showing the first two packets of a hls playlist, first one is the subtitle packet which has a timestamp of 0.127 (this is the timestamp that appears in the .vtt segment file so the demuxer appears to be working correctly), it is being offset by -1.401 which is. Use FFmpeg > filter silencedetect filter to generate an output of sections of the video 's audio with silence.Note that in ffmpeg, matching by metadata will only work properly for input files. 5.2 Generic options. These options are shared amongst the ff* tools. -L. Show license. ... The properties where a change triggers reinitialization are, for video, frame resolution or pixel format; for audio, sample format, sample rate, channel count or channel ...Using FFmpeg to add this metadata to a media file is a simple task. The parameter is-metadata X= With X being the type of metadata being added, you can find this information in the tables below. If I wanted to add a title to my video here is the command: ffmpeg -i input.mp4 -metadata title="The video titile" -c copy output.mp4. This will produce:To use the metadata file, you will need to custom compiled x265 with the cmake option "HDR10_PLUS" . Otherwise when you try to convert with it, you'll see a message like "x265 [warning]: -dhdr10-info disabled. Enable HDR10_PLUS in cmake." in the the output, but it will still encode, just without HDR10+ support.Jun 29, 2020 · ffmpeg -i input.mkv -c:v copy -vbsf hevc_mp4toannexb -f hevc - | hdr10plus_parser -o metadata.json - Option 1: Using the newest FFmpeg. You just need to pass the metadata file via the dhdr10-info option in the x265-params. And don’t forget to add your audio and subtitle settings! All Languages >> Whatever >> change metadata with ffmpeg "change metadata with ffmpeg" Code Answer. ffmpeg show metadata . whatever by Puzzled Pelican on May 20 2020 Comment . 0. Add a Grepper Answer . Answers related to "change metadata with ffmpeg" ...free amatuer nude photos. ffmpeg supports practically anything under the sun, including adding metadata.This answer on StackOverflow put me on the right path. With ffmpeg, adding metadata is simply including -metadata key=value arguments in the command:. 2022. 2. 12. · It is possible to see the rotation by looking at the metadata of a file: Then you will see a lot of information about the file.I'm trying to change FFMPEG encoder writing application with FFMPEG -metadata and for whatever reason, it's reading the input but not actually writing anything out.-map_metadata -metadata:s:v:0 -metadata writing_application, basically every single stack overflow and stack exchange thread, but they all won't write to the file at all.FFmpeg has a free-form command line option that allows the user to specify key/value pairs for encoding metadata. The option is -metadata and is used as such: Whether the metadata key/value pairs are actually encoded into the output file is dependent upon the file format being muxed. Many formats only support a handful of metadata keys.I am trying to change the video stream metadata. See (Change This Metadata) below. I can change the title of the movie ok but not any others. What is the ffmpeg line to change this. This line below changes "Title Of The Movie" only. ffmpeg -i Input.mkv -metadata title="New Title" -c:v copy -c:a copy -c:s copy Output.mkvThis is showing the first two packets of a hls playlist, first one is the subtitle packet which has a timestamp of 0.127 (this is the timestamp that appears in the .vtt segment file so the demuxer appears to be working correctly), it is being offset by -1.401 which is. Use FFmpeg > filter silencedetect filter to generate an output of sections of the video 's audio with silence.Sep 15, 2022 · 5 Metadata. FFmpeg is able to dump metadata from media files into a simple UTF-8-encoded INI-like text file and then load it back using the metadata muxer/demuxer. The file format is as follows: A file consists of a header and a number of metadata tags divided into sections, each on its own line. Jun 29, 2020 · ffmpeg -i input.mkv -c:v copy -vbsf hevc_mp4toannexb -f hevc - | hdr10plus_parser -o metadata.json - Option 1: Using the newest FFmpeg. You just need to pass the metadata file via the dhdr10-info option in the x265-params. And don’t forget to add your audio and subtitle settings! To use the metadata file, you will need to custom compiled x265 with the cmake option "HDR10_PLUS" . Otherwise when you try to convert with it, you'll see a message like "x265 [warning]: -dhdr10-info disabled. Enable HDR10_PLUS in cmake." in the the output, but it will still encode, just without HDR10+ support.Matroska Metadata, Matroska tagging documentation is available at matroska.org. Adding tags with FFmpeg, Just add use the -metadata in FFmpeg to add any metadata tag, replace the KEY with the name of the metadata value that you'd like to use and the VALUE with that metadata value. -metadata KEY="VALUE", Example:Aug 18, 2022 · ffmpeg shrink video size. ffmpeg change resolution. Using ffmpeg to split video files by size. ffmpeg add two videos together. ffmpeg increase volume. speed up video with ffmpeg. There is a ffmpeg.exe that can be used directly from windows command prompt. Once you have a logo image to overlay on a video. All you need to do is to call this command. This WEBP to MP4 converter can convert WEBP (Web Picture) files to MP4 (MPEG-4 Video) video. How To Use: Select a WEBP file. Click button "Convert" to start upload your file. Once upload completed, converter will redirect a web page to show the conversion result. Remark:. I'm not sure if this is a fault in the MPD file itself or if i'm missing any ffmpeg options neccessary or helpful in ...vintage drinking glasses worth moneyNote that in ffmpeg, matching by metadata will only work properly for input files. 5.2 Generic options. These options are shared amongst the ff* tools. -L. Show license. ... The properties where a change triggers reinitialization are, for video, frame resolution or pixel format; for audio, sample format, sample rate, channel count or channel ...Just add use the - metadata in FFmpeg to add any metadata tag, replace the KEY with the name of the metadata value that you'd like to use and the VALUE with that metadata value. - metadata KEY="VALUE" Example: ffmpeg -f lavfi -i testsrc -t 1 - metadata ARCHIVAL=yes - metadata PRESERVE_THIS=okay - metadata DESCRIPTION="Just color bars" some ...1 Answer. Sorted by: 0. I guess you cannot copy the video codec as you are changing the video profile, using this command worked for me. ffmpeg -i input.mp4 -acodec copy -profile:v high -level 4.0 output.mp4. Here I am only copying audio codec. Share.It isn't part of the steps, but this is how you troubleshoot the FFmpeg if it is activated. Step 2. Locate the file on the File Manager, and specify the input file. Step 3. Type on the CMD, type ffmpeg - i sample.mp3 -vn -acodec copy -metadata title ='Mozart' -metadata description =' music is a melody in our heart' sample.mp3 to add a title ...The easiest way to install ffmpeg is to download a pre-built binary for your specific platform. Then you don’t have to worry about including and installing all the right dependencies and codecs you will be using. Once you have ffmpeg installed, adding a watermark is as easy as passing your existing source through an overlay filter like so: LONGi Solar LR6-60HPB-315M-PT Solar Panel Pallet, 30ea Min Purchase, 315W, MC4, 35mm Black Frame, Black Backsheet, 120 Half Cell Mono-PERC, 20A Fuse, 1000VDC, 294 The LR6 lineup is an efficient monocrystalline 60-cell module, with excellent electrical and solid structural performance (5400 Pa snow load and 2400 Pa wind load) Save more money. 19 hours ago · Part 9.This answer on StackOverflow put me on the right path. With ffmpeg, adding metadata is simply including -metadata key=value arguments in the command: ffmpeg -i video.mkv -c copy -movflags use_metadata_tags -map_metadata 0 -metadata title="Hello World" -metadata year=2020 video.metadata.mkv. when split into lines:sudo apt-get install ffmpeg. if you're using Ubuntu, or: yaourt ffmpeg. if you are an Arch user. Whatever your distribution of choice, you will most certainly find ffmpeg available in your package manager. The addition of an extra repository may be necessary. Now if you type: ffmpeg –help. on a terminal, you will get a picture of the power of ... Note that in ffmpeg, matching by metadata will only work properly for input files. 5.2 Generic options. These options are shared amongst the ff* tools. -L. Show license. ... The properties where a change triggers reinitialization are, for video, frame resolution or pixel format; for audio, sample format, sample rate, channel count or channel ...FFmpeg has a free-form command line option that allows the user to specify key/value pairs for encoding metadata. The option is -metadata and is used as such: Whether the metadata key/value pairs are actually encoded into the output file is dependent upon the file format being muxed. Many formats only support a handful of metadata keys.To use the metadata file, you will need to custom compiled x265 with the cmake option "HDR10_PLUS" . Otherwise when you try to convert with it, you'll see a message like "x265 [warning]: -dhdr10-info disabled. Enable HDR10_PLUS in cmake." in the the output, but it will still encode, just without HDR10+ support.I'm not sure if this is a deliberate change, but given a h264 video with rotate=90 in its meta data, when you then rotated the video using the command below, the output video used to have no rotate metadata. ... 90" in its metadata ffmpeg -noautorotate -i original.mp4 -metadata:s:v rotate=0 -vf scale=640:480,transpose=clock -f mp4 -y rotated ...Type and run the command below, and FFmpeg will change the original FPS to the value you set. ffmpeg -i input.mp4 -vf "fps=30" output.mp4, 18. Set Group of Pictures (GOP) GOP means group of pictures, which is the distance between two keyframes. You can set the -g value as you want.FFmpeg has a free-form command line option that allows the user to specify key/value pairs for encoding metadata. The option is -metadata and is used as such: Whether the metadata key/value pairs are actually encoded into the output file is dependent upon the file format being muxed. Many formats only support a handful of metadata keys.I am converting a bunch of video recorded with iPad (mov format) into mp4 with ffmpeg (version: ffmpeg version 4.2.1-0york0~18.04.1) under Linux Ubuntu 18.04 LTS. This is the code template I am using.Sep 15, 2022 · Set metadata information of the next output file from infile. Note that those are file indices (zero-based), not filenames. Optional metadata_spec_in/out parameters specify, which metadata to copy. A metadata specifier can have the following forms: g. global metadata, i.e. metadata that applies to the whole file s[:stream_spec] per-stream metadata. sudo apt-get install ffmpeg. if you're using Ubuntu, or: yaourt ffmpeg. if you are an Arch user. Whatever your distribution of choice, you will most certainly find ffmpeg available in your package manager. The addition of an extra repository may be necessary. Now if you type: ffmpeg –help. on a terminal, you will get a picture of the power of ... Nov 06, 2013 · FFMPEG有几个最重要的结构体,包含了解协议,解封装,解码操作,此前已经进行过分析:FFMPEG中最关键的结构体之间的关系在此不再详述,其中AVFrame是包含码流参数较多的结构体。本文将会详细分析一下该结构体里每个变量的含义和作用。 3.100 Input #0, mov,mp4,m4a,3gp,3g2,mj2, from 'c:/sample-in-issue-505.mov': Metadata: major_brand : qt minor_version : 0 compatible_brands: qt creation_time : 2011-09-25 10:10:07 make : Apple make-deu : Apple encoder : 4.3.5 encoder-deu : 4.3.5 date : 2011-09-25T12:09:54+0200 date-deu : 2011-09-25T12:09:54+0200 location : +51.3889+006.8611 ...sudo apt-get install ffmpeg. if you're using Ubuntu, or: yaourt ffmpeg. if you are an Arch user. Whatever your distribution of choice, you will most certainly find ffmpeg available in your package manager. The addition of an extra repository may be necessary. Now if you type: ffmpeg –help. on a terminal, you will get a picture of the power of ... Jun 29, 2020 · ffmpeg -i input.mkv -c:v copy -vbsf hevc_mp4toannexb -f hevc - | hdr10plus_parser -o metadata.json - Option 1: Using the newest FFmpeg. You just need to pass the metadata file via the dhdr10-info option in the x265-params. And don’t forget to add your audio and subtitle settings! Sep 15, 2022 · 5 Metadata. FFmpeg is able to dump metadata from media files into a simple UTF-8-encoded INI-like text file and then load it back using the metadata muxer/demuxer. The file format is as follows: A file consists of a header and a number of metadata tags divided into sections, each on its own line. Then use ffmpeg to remux the file:./ffmpeg_g -i /tmp/silence.ogg -y -c copy /tmp/silence_ff.ogg Check the output: $ vorbiscomment silence.ogg custom=Comment title=Title artist=Artist album=Album $ vorbiscomment silence_ff.ogg CUSTOM=Comment TITLE=Title ARTIST=Artist ALBUM=Album encoder=Lavf58.26.101Using FFmpeg to add this metadata to a media file is a simple task. The parameter is-metadata X= With X being the type of metadata being added, you can find this information in the tables below. If I wanted to add a title to my video here is the command: ffmpeg -i input.mp4 -metadata title="The video titile" -c copy output.mp4. This will produce:LONGi Solar LR6-60HPB-315M-PT Solar Panel Pallet, 30ea Min Purchase, 315W, MC4, 35mm Black Frame, Black Backsheet, 120 Half Cell Mono-PERC, 20A Fuse, 1000VDC, 294 The LR6 lineup is an efficient monocrystalline 60-cell module, with excellent electrical and solid structural performance (5400 Pa snow load and 2400 Pa wind load) Save more money. 19 hours ago · Part 9.Sep 15, 2022 · 5 Metadata. FFmpeg is able to dump metadata from media files into a simple UTF-8-encoded INI-like text file and then load it back using the metadata muxer/demuxer. The file format is as follows: A file consists of a header and a number of metadata tags divided into sections, each on its own line. I'm trying to change FFMPEG encoder writing application with FFMPEG -metadata and for whatever reason, it's reading the input but not actually writing anything out.-map_metadata -metadata:s:v:0 -metadata writing_application, basically every single stack overflow and stack exchange thread, but they all won't write to the file at all.sudo apt-get install ffmpeg. if you're using Ubuntu, or: yaourt ffmpeg. if you are an Arch user. Whatever your distribution of choice, you will most certainly find ffmpeg available in your package manager. The addition of an extra repository may be necessary. Now if you type: ffmpeg –help. on a terminal, you will get a picture of the power of ... Note that in ffmpeg, matching by metadata will only work properly for input files. 5.2 Generic options. These options are shared amongst the ff* tools. -L. Show license. ... The properties where a change triggers reinitialization are, for video, frame resolution or pixel format; for audio, sample format, sample rate, channel count or channel ...You can kind of work around, e. g. use a language such as ruby, python, perl, perhaps even exiftool to read the metadata (I found the output from exiftool easier to parse and read than "ffmpeg -i"), then make a backup copy of the video file, then modify the meta-tag data. This is actually quite simple to do via ffmpeg, for instance:Otherwise, for ffmpeg, I always use two commands: the first to write to a temp file, then the second to copy it back to the original: ffmpeg -i original.mp4 -metadata title="my title" -c copy -y /tmp/tmp.mp4 && ffmpeg -i /tmp/tmp.mp4 -c copy -y original.mp4. If you do it a lot, you could wrap it all in a nice script too.This WEBP to MP4 converter can convert WEBP (Web Picture) files to MP4 (MPEG-4 Video) video. How To Use: Select a WEBP file. Click button "Convert" to start upload your file. Once upload completed, converter will redirect a web page to show the conversion result. Remark:. I'm not sure if this is a fault in the MPD file itself or if i'm missing any ffmpeg options neccessary or helpful in ...FFmpeg should've added pix_fmt metadata by default. The fact you're player recognizes it as gbrp is worrying. I don't think there's any way to change this, honestly sounds like your file is corrupt or something. You can however easily change color space metadata using the hevc_metadata bitstream filter.The whole string would look something like this in case of a plain copy operation to only change metadata . ffmpeg -i /path/to/input.mov -c:v copy -c:a copy -mov_gamma 2.4 -movflags write_colr+write_gama -color_trc unspecified -color_primaries bt709 -colorspace bt709 /path/to/output.mov -y new 26 foot box truck with sleeper for salexa